<?xml version="1.0" standalone="no"?>
<!DOCTYPE svg PUBLIC "-//W3C//DTD SVG 1.1//EN" "http://www.w3.org/Graphics/SVG/1.1/DTD/svg11.dtd">
<svg xmlns="http://www.w3.org/2000/svg">
<metadata>This SVG font generated by Fontastic.me</metadata>
<defs>
<font id="washicons" horiz-adv-x="512">
  <font-face font-family="washicons" font-weight="500" font-stretch="normal" units-per-em="512" panose-1="2 0 6 3 0 0 0 0 0 0" ascent="480" descent="-32" bbox="0 -32 512 480" underline-thickness="50" underline-position="-100" unicode-range="U+E000-E053"/>
    <missing-glyph/>
    <glyph glyph-name="glyph0" unicode="&#57344;" d="M256 416l208 -352h-416zM256 336l-128 -224h256z"/>
    <glyph glyph-name="glyph1" unicode="&#57345;" d="M256 416l208 -352h-416zM128 112h57l96 180l-25 44zM201 112h64l58 108l-33 57zM331 205l-50 -93h103z"/>
    <glyph glyph-name="glyph2" unicode="&#57346;" d="M358 243l55 -93l99 -53l-16 -33l-46 24l14 -24h-416l14 24l-46 -24l-16 33l99 53l55 93l-138 72l16 37l142 -75l82 139l82 -139l142 75l16 -37zM340 188l-19 35l-23 -12zM256 336l-45 -79l45 -24l45 24zM191 223l-19 -35l42 23zM384 112l-9 15l-119 62l-119 -62l-9 -15 h256z"/>
    <glyph glyph-name="glyph3" unicode="&#57347;" d="M160 176c0 128 64 144 64 144h48s64 -16 64 -144v-128c0 -16 -16 -16 -16 -16h-144c-16 0 -16 16 -16 16v128zM269 300c-13 -4 -17 -28 -9 -53s24 -42 37 -38s17 28 9 53s-24 42 -37 38zM272 384v-48h-48v48c0 16 16 16 16 16h16c16 0 16 -16 16 -16z"/>
    <glyph glyph-name="glyph4" unicode="&#57348;" d="M176 48h160v-32h-160v32zM256 64c-97 0 -176 79 -176 176s79 176 176 176s176 -79 176 -176s-79 -176 -176 -176zM256 384c-80 0 -144 -64 -144 -144s64 -144 144 -144s144 64 144 144s-64 144 -144 144zM244 222v-75h-30v180h97v-26h-67v-54h61v-25h-61z"/>
    <glyph glyph-name="glyph5" unicode="&#57349;" d="M256 64c-97 0 -176 79 -176 176s79 176 176 176s176 -79 176 -176s-79 -176 -176 -176zM256 384c-80 0 -144 -64 -144 -144s64 -144 144 -144s144 64 144 144s-64 144 -144 144zM244 222v-75h-30v180h97v-26h-67v-54h61v-25h-61z"/>
    <glyph glyph-name="glyph6" unicode="&#57350;" d="M256 64c-97 0 -176 79 -176 176s79 176 176 176s176 -79 176 -176s-79 -176 -176 -176zM256 384c-80 0 -144 -64 -144 -144s64 -144 144 -144s144 64 144 144s-64 144 -144 144zM220 193l-15 -46h-33l67 180h34l66 -180h-32l-16 46h-71zM253 289l-25 -72h55l-25 72 c-1 2 -1 6 -2 11h-1c-1 -5 -1 -8 -2 -11z"/>
    <glyph glyph-name="glyph7" unicode="&#57351;" d="M256 64c-97 0 -176 79 -176 176s79 176 176 176s176 -79 176 -176s-79 -176 -176 -176zM256 384c-80 0 -144 -64 -144 -144s64 -144 144 -144s144 64 144 144s-64 144 -144 144z"/>
    <glyph glyph-name="glyph8" unicode="&#57352;" d="M64 32v384h384v-384h-384zM112 368v-288h288v288h-288zM240 320h32v-192h-32v192zM160 320h32v-192h-32v192zM320 320h32v-192h-32v192z"/>
    <glyph glyph-name="glyph9" unicode="&#57353;" d="M448 416v-384h-384v384h384zM400 80v288h-288v-288h288z"/>
    <glyph glyph-name="glyph10" unicode="&#57354;" d="M64 80l-16 37l54 38c-14 25 -22 54 -22 85s8 60 22 85l-54 38l16 37l60 -43c32 36 80 59 132 59s99 -23 131 -59l61 43l16 -33l-55 -40c15 -26 23 -55 23 -87s-8 -61 -23 -87l55 -40l-16 -33l-61 43c-32 -36 -79 -59 -131 -59s-100 23 -132 59z"/>
    <glyph glyph-name="glyph11" unicode="&#57355;" d="M176 48h160v-32h-160v32zM176 0h160v-32h-160v32zM432 240c0 -97 -79 -176 -176 -176s-176 79 -176 176s79 176 176 176s176 -79 176 -176zM256 96c80 0 144 64 144 144s-64 144 -144 144s-144 -64 -144 -144s64 -144 144 -144zM335 304h27l-43 -157h-30l-29 110 c-1 5 -3 9 -3 15v0c0 -5 -2 -10 -3 -15l-30 -110h-30l-44 157h29l28 -115c1 -5 2 -10 2 -15h1c0 4 1 9 3 15l32 115h27l30 -116c1 -4 1 -9 2 -14v0c0 4 2 9 3 15z"/>
    <glyph glyph-name="glyph12" unicode="&#57356;" d="M448 416v-384h-384v384h384zM400 80v288h-288v-288h288zM256 368c80 0 144 -64 144 -144s-64 -144 -144 -144s-144 64 -144 144s64 144 144 144zM256 96c71 0 128 57 128 128s-57 128 -128 128s-128 -57 -128 -128s57 -128 128 -128zM288 224c0 -18 -14 -32 -32 -32 s-32 14 -32 32s14 32 32 32s32 -14 32 -32z"/>
    <glyph glyph-name="glyph13" unicode="&#57357;" d="M448 416v-384h-384v384h384zM400 80v288h-288v-288h288zM256 368c80 0 144 -64 144 -144s-64 -144 -144 -144s-144 64 -144 144s64 144 144 144zM256 96c71 0 128 57 128 128s-57 128 -128 128s-128 -57 -128 -128s57 -128 128 -128zM288 224c0 -18 -14 -32 -32 -32 s-32 14 -32 32s14 32 32 32s32 -14 32 -32zM80 16h160v-32h-160v32zM272 16h160v-32h-160v32z"/>
    <glyph glyph-name="glyph14" unicode="&#57358;" d="M448 416v-384h-384v384h384zM400 80v288h-288v-288h288zM256 368c80 0 144 -64 144 -144s-64 -144 -144 -144s-144 64 -144 144s64 144 144 144zM256 96c71 0 128 57 128 128s-57 128 -128 128s-128 -57 -128 -128s57 -128 128 -128zM288 224c0 -18 -14 -32 -32 -32 s-32 14 -32 32s14 32 32 32s32 -14 32 -32zM176 16h160v-32h-160v32z"/>
    <glyph glyph-name="glyph15" unicode="&#57359;" d="M448 416v-384h-384v384h384zM400 80v288h-288v-288h288zM256 368c80 0 144 -64 144 -144s-64 -144 -144 -144s-144 64 -144 144s64 144 144 144zM256 96c71 0 128 57 128 128s-57 128 -128 128s-128 -57 -128 -128s57 -128 128 -128zM240 224c0 -18 -14 -32 -32 -32 s-32 14 -32 32s14 32 32 32s32 -14 32 -32zM336 224c0 -18 -14 -32 -32 -32s-32 14 -32 32s14 32 32 32s32 -14 32 -32z"/>
    <glyph glyph-name="glyph16" unicode="&#57360;" d="M336 320c0 -19 -14 -38 -32 -30v-50c0 -21 -12 -32 -24 -32c-6 0 -12 3 -16 8c-9 -10 -23 -10 -32 0c-14 -15 -40 -7 -40 24v66c-14 -6 -32 4 -32 30v64c0 30 30 62 50 80h25c-18 -14 -59 -52 -59 -80v-64c0 -21 16 -21 16 0v48h16v-144c0 -21 16 -21 16 0v104h16v-104 c0 -21 16 -21 16 0v104h16v-104c0 -21 16 -21 16 0v120h16v-40c0 -15 8 -19 13 -13c2 3 3 7 3 13v64c0 54 -9 85 -13 96h17c5 -15 12 -47 12 -96v-64zM320 160c0 -18 -14 -32 -32 -32s-32 14 -32 32s14 32 32 32s32 -14 32 -32zM240 160c0 -18 -14 -32 -32 -32 s-32 14 -32 32s14 32 32 32s32 -14 32 -32zM384 336c-16 0 -23 -11 -32 -19v22c7 7 17 13 32 13c19 0 30 -10 38 -18c6 -6 11 -11 20 -13l6 31h48l-64 -288h-352l-64 288h48l6 -31c9 2 14 7 20 13c8 8 19 18 38 18c6 0 11 -1 16 -3v-18c-4 3 -9 5 -16 5 c-13 0 -18 -6 -26 -14c-7 -7 -16 -14 -29 -17l39 -193h288l39 193c-13 3 -22 10 -29 17c-8 8 -13 14 -26 14z"/>
    <glyph glyph-name="glyph17" unicode="&#57361;" d="M176 48h160v-32h-160v32zM368 208c0 -18 -14 -32 -32 -32s-32 14 -32 32s14 32 32 32s32 -14 32 -32zM288 208c0 -18 -14 -32 -32 -32s-32 14 -32 32s14 32 32 32s32 -14 32 -32zM208 208c0 -18 -14 -32 -32 -32s-32 14 -32 32s14 32 32 32s32 -14 32 -32zM442 321l6 31 h48l-64 -288h-352l-64 288h48l6 -31c9 2 14 7 20 13c8 8 19 18 38 18s30 -10 38 -18s13 -14 26 -14s18 6 26 14s19 18 38 18s30 -10 38 -18s13 -14 26 -14s18 6 26 14s19 18 38 18s30 -10 38 -18c6 -6 11 -11 20 -13zM400 112l39 193c-13 3 -22 10 -29 17 c-8 8 -13 14 -26 14s-18 -6 -26 -14s-19 -18 -38 -18s-30 10 -38 18s-13 14 -26 14s-18 -6 -26 -14s-19 -18 -38 -18s-30 10 -38 18s-13 14 -26 14s-18 -6 -26 -14c-7 -7 -16 -14 -29 -17l39 -193h288z"/>
    <glyph glyph-name="glyph18" unicode="&#57362;" d="M176 48h160v-32h-160v32zM176 0h160v-32h-160v32zM171 269c20 0 36 -10 36 -29c0 -16 -9 -26 -25 -31v-1c16 -2 29 -12 29 -29c0 -24 -20 -37 -45 -37c-12 0 -22 3 -29 7v18c8 -6 17 -9 27 -9c15 0 27 6 27 20s-11 21 -32 21h-10v16h9c19 0 29 7 29 20c0 12 -7 18 -22 18 c-8 0 -17 -2 -24 -8v17c8 5 19 7 30 7zM229 203c0 37 10 66 43 66c27 0 41 -21 41 -63c0 -35 -11 -64 -43 -64c-30 0 -41 28 -41 61zM271 158c14 0 22 16 22 47c0 32 -7 48 -21 48c-15 0 -23 -16 -23 -49c0 -31 7 -46 22 -46zM330 245c0 13 11 24 24 24s24 -11 24 -24 s-11 -24 -24 -24s-24 11 -24 24zM354 232c7 0 13 6 13 13s-6 13 -13 13s-12 -6 -12 -13s5 -13 12 -13zM442 321l6 31h48l-64 -288h-352l-64 288h48l6 -31c9 2 14 7 20 13c8 8 19 18 38 18s30 -10 38 -18s13 -14 26 -14s18 6 26 14s19 18 38 18s30 -10 38 -18s13 -14 26 -14 s18 6 26 14s19 18 38 18s30 -10 38 -18c6 -6 11 -11 20 -13zM400 112l39 193c-13 3 -22 10 -29 17c-8 8 -13 14 -26 14s-18 -6 -26 -14s-19 -18 -38 -18s-30 10 -38 18s-13 14 -26 14s-18 -6 -26 -14s-19 -18 -38 -18s-30 10 -38 18s-13 14 -26 14s-18 -6 -26 -14 c-7 -7 -16 -14 -29 -17l39 -193h288z"/>
    <glyph glyph-name="glyph19" unicode="&#57363;" d="M288 208c0 -18 -14 -32 -32 -32s-32 14 -32 32s14 32 32 32s32 -14 32 -32zM442 321l6 31h48l-64 -288h-352l-64 288h48l6 -31c9 2 14 7 20 13c8 8 19 18 38 18s30 -10 38 -18s13 -14 26 -14s18 6 26 14s19 18 38 18s30 -10 38 -18s13 -14 26 -14s18 6 26 14s19 18 38 18 s30 -10 38 -18c6 -6 11 -11 20 -13zM400 112l39 193c-13 3 -22 10 -29 17c-8 8 -13 14 -26 14s-18 -6 -26 -14s-19 -18 -38 -18s-30 10 -38 18s-13 14 -26 14s-18 -6 -26 -14s-19 -18 -38 -18s-30 10 -38 18s-13 14 -26 14s-18 -6 -26 -14c-7 -7 -16 -14 -29 -17l39 -193 h288z"/>
    <glyph glyph-name="glyph20" unicode="&#57364;" d="M176 48h160v-32h-160v32zM192 181c0 16 -14 22 -31 22c-3 0 -9 0 -18 -1v65h63v-17h-45v-31c4 0 7 1 10 1c25 0 41 -14 41 -38c0 -26 -19 -40 -46 -40c-12 0 -21 2 -27 5v19c8 -5 17 -8 25 -8c16 0 28 8 28 23zM228 203c0 37 11 66 44 66c27 0 41 -21 41 -63 c0 -35 -12 -64 -44 -64c-30 0 -41 28 -41 61zM271 158c14 0 21 16 21 47c0 32 -7 48 -21 48c-15 0 -22 -16 -22 -49c0 -31 7 -46 22 -46zM330 245c0 13 11 24 24 24s24 -11 24 -24s-11 -24 -24 -24s-24 11 -24 24zM354 232c7 0 12 6 12 13s-5 13 -12 13s-12 -6 -12 -13 s5 -13 12 -13zM442 321l6 31h48l-64 -288h-352l-64 288h48l6 -31c9 2 14 7 20 13c8 8 19 18 38 18s30 -10 38 -18s13 -14 26 -14s18 6 26 14s19 18 38 18s30 -10 38 -18s13 -14 26 -14s18 6 26 14s19 18 38 18s30 -10 38 -18c6 -6 11 -11 20 -13zM400 112l39 193 c-13 3 -22 10 -29 17c-8 8 -13 14 -26 14s-18 -6 -26 -14s-19 -18 -38 -18s-30 10 -38 18s-13 14 -26 14s-18 -6 -26 -14s-19 -18 -38 -18s-30 10 -38 18s-13 14 -26 14s-18 -6 -26 -14c-7 -7 -16 -14 -29 -17l39 -193h288z"/>
    <glyph glyph-name="glyph21" unicode="&#57365;" d="M336 320c0 -19 -14 -38 -32 -30v-50c0 -21 -12 -32 -24 -32c-6 0 -12 3 -16 8c-9 -10 -23 -10 -32 0c-14 -15 -40 -7 -40 24v66c-14 -6 -32 4 -32 30v64c0 30 30 62 50 80h25c-18 -14 -59 -52 -59 -80v-64c0 -21 16 -21 16 0v48h16v-144c0 -21 16 -21 16 0v104h16v-104 c0 -21 16 -21 16 0v104h16v-104c0 -21 16 -21 16 0v120h16v-40c0 -15 8 -19 13 -13c2 3 3 7 3 13v64c0 54 -9 85 -13 96h17c5 -15 12 -47 12 -96v-64zM288 160c0 -18 -14 -32 -32 -32s-32 14 -32 32s14 32 32 32s32 -14 32 -32zM384 336c-16 0 -23 -11 -32 -19v22 c7 7 17 13 32 13c19 0 30 -10 38 -18c6 -6 11 -11 20 -13l6 31h48l-64 -288h-352l-64 288h48l6 -31c9 2 14 7 20 13c8 8 19 18 38 18c6 0 11 -1 16 -3v-18c-4 3 -9 5 -16 5c-13 0 -18 -6 -26 -14c-7 -7 -16 -14 -29 -17l39 -193h288l39 193c-13 3 -22 10 -29 17 c-8 8 -13 14 -26 14z"/>
    <glyph glyph-name="glyph22" unicode="&#57366;" d="M336 256c0 -19 -14 -38 -32 -30v-50c0 -21 -12 -32 -24 -32c-6 0 -12 3 -16 8c-9 -10 -23 -10 -32 0c-14 -15 -40 -7 -40 24v66c-14 -6 -32 4 -32 30v64c0 30 30 62 50 80h25c-18 -14 -59 -52 -59 -80v-64c0 -21 16 -21 16 0v48h16v-144c0 -21 16 -21 16 0v104h16v-104 c0 -21 16 -21 16 0v104h16v-104c0 -21 16 -21 16 0v120h16v-40c0 -15 8 -19 13 -13c2 3 3 7 3 13v64c0 54 -9 85 -13 96h17c5 -15 12 -47 12 -96v-64zM384 336c-16 0 -23 -11 -32 -19v22c7 7 17 13 32 13c19 0 30 -10 38 -18c6 -6 11 -11 20 -13l6 31h48l-64 -288h-352 l-64 288h48l6 -31c9 2 14 7 20 13c8 8 19 18 38 18c6 0 11 -1 16 -3v-18c-4 3 -9 5 -16 5c-13 0 -18 -6 -26 -14c-7 -7 -16 -14 -29 -17l39 -193h288l39 193c-13 3 -22 10 -29 17c-8 8 -13 14 -26 14z"/>
    <glyph glyph-name="glyph23" unicode="&#57367;" d="M368 208c0 -18 -14 -32 -32 -32s-32 14 -32 32s14 32 32 32s32 -14 32 -32zM288 208c0 -18 -14 -32 -32 -32s-32 14 -32 32s14 32 32 32s32 -14 32 -32zM208 208c0 -18 -14 -32 -32 -32s-32 14 -32 32s14 32 32 32s32 -14 32 -32zM442 321l6 31h48l-64 -288h-352l-64 288 h48l6 -31c9 2 14 7 20 13c8 8 19 18 38 18s30 -10 38 -18s13 -14 26 -14s18 6 26 14s19 18 38 18s30 -10 38 -18s13 -14 26 -14s18 6 26 14s19 18 38 18s30 -10 38 -18c6 -6 11 -11 20 -13zM400 112l39 193c-13 3 -22 10 -29 17c-8 8 -13 14 -26 14s-18 -6 -26 -14 s-19 -18 -38 -18s-30 10 -38 18s-13 14 -26 14s-18 -6 -26 -14s-19 -18 -38 -18s-30 10 -38 18s-13 14 -26 14s-18 -6 -26 -14c-7 -7 -16 -14 -29 -17l39 -193h288z"/>
    <glyph glyph-name="glyph24" unicode="&#57368;" d="M171 269c20 0 36 -10 36 -29c0 -16 -9 -26 -25 -31v-1c16 -2 29 -12 29 -29c0 -24 -20 -37 -45 -37c-12 0 -22 3 -29 7v18c8 -6 17 -9 27 -9c15 0 27 6 27 20s-11 21 -32 21h-10v16h9c19 0 29 7 29 20c0 12 -7 18 -22 18c-8 0 -17 -2 -24 -8v17c8 5 19 7 30 7zM229 203 c0 37 10 66 43 66c27 0 41 -21 41 -63c0 -35 -11 -64 -43 -64c-30 0 -41 28 -41 61zM271 158c14 0 22 16 22 47c0 32 -7 48 -21 48c-15 0 -23 -16 -23 -49c0 -31 7 -46 22 -46zM330 245c0 13 11 24 24 24s24 -11 24 -24s-11 -24 -24 -24s-24 11 -24 24zM354 232 c7 0 13 6 13 13s-6 13 -13 13s-12 -6 -12 -13s5 -13 12 -13zM442 321l6 31h48l-64 -288h-352l-64 288h48l6 -31c9 2 14 7 20 13c8 8 19 18 38 18s30 -10 38 -18s13 -14 26 -14s18 6 26 14s19 18 38 18s30 -10 38 -18s13 -14 26 -14s18 6 26 14s19 18 38 18s30 -10 38 -18 c6 -6 11 -11 20 -13zM400 112l39 193c-13 3 -22 10 -29 17c-8 8 -13 14 -26 14s-18 -6 -26 -14s-19 -18 -38 -18s-30 10 -38 18s-13 14 -26 14s-18 -6 -26 -14s-19 -18 -38 -18s-30 10 -38 18s-13 14 -26 14s-18 -6 -26 -14c-7 -7 -16 -14 -29 -17l39 -193h288z"/>
    <glyph glyph-name="glyph25" unicode="&#57369;" d="M442 321l6 31h48l-64 -288h-352l-64 288h48l6 -31c9 2 14 7 20 13c8 8 19 18 38 18s30 -10 38 -18s13 -14 26 -14s18 6 26 14s19 18 38 18s30 -10 38 -18s13 -14 26 -14s18 6 26 14s19 18 38 18s30 -10 38 -18c6 -6 11 -11 20 -13zM400 112l39 193c-13 3 -22 10 -29 17 c-8 8 -13 14 -26 14s-18 -6 -26 -14s-19 -18 -38 -18s-30 10 -38 18s-13 14 -26 14s-18 -6 -26 -14s-19 -18 -38 -18s-30 10 -38 18s-13 14 -26 14s-18 -6 -26 -14c-7 -7 -16 -14 -29 -17l39 -193h288z"/>
    <glyph glyph-name="glyph26" unicode="&#57370;" d="M192 181c0 16 -14 22 -31 22c-3 0 -9 0 -18 -1v65h63v-17h-45v-31c4 0 7 1 10 1c25 0 41 -14 41 -38c0 -26 -19 -40 -46 -40c-12 0 -21 2 -27 5v19c8 -5 17 -8 25 -8c16 0 28 8 28 23zM228 203c0 37 11 66 44 66c27 0 41 -21 41 -63c0 -35 -12 -64 -44 -64 c-30 0 -41 28 -41 61zM271 158c14 0 21 16 21 47c0 32 -7 48 -21 48c-15 0 -22 -16 -22 -49c0 -31 7 -46 22 -46zM330 245c0 13 11 24 24 24s24 -11 24 -24s-11 -24 -24 -24s-24 11 -24 24zM354 232c7 0 12 6 12 13s-5 13 -12 13s-12 -6 -12 -13s5 -13 12 -13zM442 321l6 31 h48l-64 -288h-352l-64 288h48l6 -31c9 2 14 7 20 13c8 8 19 18 38 18s30 -10 38 -18s13 -14 26 -14s18 6 26 14s19 18 38 18s30 -10 38 -18s13 -14 26 -14s18 6 26 14s19 18 38 18s30 -10 38 -18c6 -6 11 -11 20 -13zM400 112l39 193c-13 3 -22 10 -29 17 c-8 8 -13 14 -26 14s-18 -6 -26 -14s-19 -18 -38 -18s-30 10 -38 18s-13 14 -26 14s-18 -6 -26 -14s-19 -18 -38 -18s-30 10 -38 18s-13 14 -26 14s-18 -6 -26 -14c-7 -7 -16 -14 -29 -17l39 -193h288z"/>
    <glyph glyph-name="glyph27" unicode="&#57371;" d="M176 48h160v-32h-160v32zM368 160c0 -18 -14 -32 -32 -32s-32 14 -32 32s14 32 32 32s32 -14 32 -32zM288 160c0 -18 -14 -32 -32 -32s-32 14 -32 32s14 32 32 32s32 -14 32 -32zM208 160c0 -18 -14 -32 -32 -32s-32 14 -32 32s14 32 32 32s32 -14 32 -32zM368 240 c0 -18 -14 -32 -32 -32s-32 14 -32 32s14 32 32 32s32 -14 32 -32zM288 240c0 -18 -14 -32 -32 -32s-32 14 -32 32s14 32 32 32s32 -14 32 -32zM208 240c0 -18 -14 -32 -32 -32s-32 14 -32 32s14 32 32 32s32 -14 32 -32zM442 321l6 31h48l-64 -288h-352l-64 288h48l6 -31 c9 2 14 7 20 13c8 8 19 18 38 18s30 -10 38 -18s13 -14 26 -14s18 6 26 14s19 18 38 18s30 -10 38 -18s13 -14 26 -14s18 6 26 14s19 18 38 18s30 -10 38 -18c6 -6 11 -11 20 -13zM400 112l39 193c-13 3 -22 10 -29 17c-8 8 -13 14 -26 14s-18 -6 -26 -14s-19 -18 -38 -18 s-30 10 -38 18s-13 14 -26 14s-18 -6 -26 -14s-19 -18 -38 -18s-30 10 -38 18s-13 14 -26 14s-18 -6 -26 -14c-7 -7 -16 -14 -29 -17l39 -193h288z"/>
    <glyph glyph-name="glyph28" unicode="&#57372;" d="M464 351l-103 -74c6 -4 11 -8 16 -13l23 26h48v-130h-71l87 -63l-16 -33l-136 96h-8s-29 -14 -68 -14c-15 0 -30 2 -47 8l-125 -90l-16 37l102 73c-5 4 -10 7 -15 12l-23 -26h-48v130h65l-81 57l16 37l132 -94h12s29 14 68 14c15 0 31 -2 48 -8l124 88zM307 284 c-10 2 -20 4 -31 4c-28 0 -50 -8 -58 -11l-2 -2l39 -28zM105 176l70 81l-24 17h-71v-98h25zM150 194c5 -4 9 -8 14 -11l58 41l-30 21zM205 165c10 -2 20 -3 31 -3c28 0 50 8 58 11l-39 28zM407 274l-72 -84l19 -14h78v98h-25zM362 256c-5 4 -10 8 -15 11l-60 -43l31 -22z "/>
    <glyph glyph-name="glyph29" unicode="&#57373;" d="M512 319l-27 -14l-39 -178l50 -26l-16 -37l-43 23l-5 -23h-352l-5 23l-43 -23l-16 37l50 26l-39 178l-27 14l16 33h48l6 -28l4 -2c7 2 11 7 16 12c8 8 19 18 38 18s30 -10 38 -18s13 -14 26 -14s18 6 26 14s19 18 38 18s30 -10 38 -18s13 -14 26 -14s18 6 26 14 s19 18 38 18s30 -10 38 -18c5 -5 9 -10 16 -12l4 2l6 28h48zM421 313c-12 9 -19 23 -37 23c-13 0 -18 -6 -26 -14s-19 -18 -38 -18s-30 10 -38 18s-13 14 -26 14s-18 -6 -26 -14s-19 -18 -38 -18s-30 10 -38 18s-13 14 -26 14c-18 0 -25 -14 -37 -23l165 -86zM79 277 l26 -129l109 57zM122 112h268l-134 71zM407 148l26 129l-135 -72z"/>
    <glyph glyph-name="glyph30" unicode="&#57374;" d="M133 198c0 38 17 71 53 71c9 0 16 -1 21 -3v-18c-6 3 -12 5 -19 5c-23 0 -35 -21 -35 -46v0c6 10 15 15 28 15c22 0 34 -16 34 -38c0 -24 -16 -42 -40 -42c-29 0 -42 25 -42 56zM175 158c13 0 20 11 20 24c0 14 -6 24 -20 24c-12 0 -21 -9 -21 -21c0 -14 8 -27 21 -27z M230 203c0 37 10 66 43 66c27 0 41 -21 41 -63c0 -35 -12 -64 -44 -64c-30 0 -40 28 -40 61zM272 158c14 0 22 16 22 47c0 32 -8 48 -22 48c-15 0 -22 -16 -22 -49c0 -31 7 -46 22 -46zM331 245c0 13 11 24 24 24s24 -11 24 -24s-11 -24 -24 -24s-24 11 -24 24zM355 232 c7 0 13 6 13 13s-6 13 -13 13s-12 -6 -12 -13s5 -13 12 -13zM442 321l6 31h48l-64 -288h-352l-64 288h48l6 -31c9 2 14 7 20 13c8 8 19 18 38 18s30 -10 38 -18s13 -14 26 -14s18 6 26 14s19 18 38 18s30 -10 38 -18s13 -14 26 -14s18 6 26 14s19 18 38 18s30 -10 38 -18 c6 -6 11 -11 20 -13zM400 112l39 193c-13 3 -22 10 -29 17c-8 8 -13 14 -26 14s-18 -6 -26 -14s-19 -18 -38 -18s-30 10 -38 18s-13 14 -26 14s-18 -6 -26 -14s-19 -18 -38 -18s-30 10 -38 18s-13 14 -26 14s-18 -6 -26 -14c-7 -7 -16 -14 -29 -17l39 -193h288z"/>
    <glyph glyph-name="glyph31" unicode="&#57375;" d="M176 48h160v-32h-160v32zM176 0h160v-32h-160v32zM288 208c0 -18 -14 -32 -32 -32s-32 14 -32 32s14 32 32 32s32 -14 32 -32zM442 321l6 31h48l-64 -288h-352l-64 288h48l6 -31c9 2 14 7 20 13c8 8 19 18 38 18s30 -10 38 -18s13 -14 26 -14s18 6 26 14s19 18 38 18 s30 -10 38 -18s13 -14 26 -14s18 6 26 14s19 18 38 18s30 -10 38 -18c6 -6 11 -11 20 -13zM400 112l39 193c-13 3 -22 10 -29 17c-8 8 -13 14 -26 14s-18 -6 -26 -14s-19 -18 -38 -18s-30 10 -38 18s-13 14 -26 14s-18 -6 -26 -14s-19 -18 -38 -18s-30 10 -38 18 s-13 14 -26 14s-18 -6 -26 -14c-7 -7 -16 -14 -29 -17l39 -193h288z"/>
    <glyph glyph-name="glyph32" unicode="&#57376;" d="M448 416v-384h-384v384h384zM400 80v288h-288v-288h288zM256 368c80 0 144 -64 144 -144s-64 -144 -144 -144s-144 64 -144 144s64 144 144 144zM256 96c71 0 128 57 128 128s-57 128 -128 128s-128 -57 -128 -128s57 -128 128 -128zM240 224c0 -18 -14 -32 -32 -32 s-32 14 -32 32s14 32 32 32s32 -14 32 -32zM336 224c0 -18 -14 -32 -32 -32s-32 14 -32 32s14 32 32 32s32 -14 32 -32zM176 16h160v-32h-160v32z"/>
    <glyph glyph-name="glyph33" unicode="&#57377;" d="M64 32v384h384v-384h-384zM112 368v-288h288v288h-288zM400 224c0 -80 -64 -144 -144 -144s-144 64 -144 144s64 144 144 144s144 -64 144 -144z"/>
    <glyph glyph-name="glyph34" unicode="&#57378;" d="M176 48h160v-32h-160v32zM171 269c20 0 36 -10 36 -29c0 -16 -9 -26 -25 -31v-1c16 -2 29 -12 29 -29c0 -24 -20 -37 -45 -37c-12 0 -22 3 -29 7v18c8 -6 17 -9 27 -9c15 0 27 6 27 20s-11 21 -32 21h-10v16h9c19 0 29 7 29 20c0 12 -7 18 -22 18c-8 0 -17 -2 -24 -8v17 c8 5 19 7 30 7zM229 203c0 37 10 66 43 66c27 0 41 -21 41 -63c0 -35 -11 -64 -43 -64c-30 0 -41 28 -41 61zM271 158c14 0 22 16 22 47c0 32 -7 48 -21 48c-15 0 -23 -16 -23 -49c0 -31 7 -46 22 -46zM330 245c0 13 11 24 24 24s24 -11 24 -24s-11 -24 -24 -24 s-24 11 -24 24zM354 232c7 0 13 6 13 13s-6 13 -13 13s-12 -6 -12 -13s5 -13 12 -13zM442 321l6 31h48l-64 -288h-352l-64 288h48l6 -31c9 2 14 7 20 13c8 8 19 18 38 18s30 -10 38 -18s13 -14 26 -14s18 6 26 14s19 18 38 18s30 -10 38 -18s13 -14 26 -14s18 6 26 14 s19 18 38 18s30 -10 38 -18c6 -6 11 -11 20 -13zM400 112l39 193c-13 3 -22 10 -29 17c-8 8 -13 14 -26 14s-18 -6 -26 -14s-19 -18 -38 -18s-30 10 -38 18s-13 14 -26 14s-18 -6 -26 -14s-19 -18 -38 -18s-30 10 -38 18s-13 14 -26 14s-18 -6 -26 -14 c-7 -7 -16 -14 -29 -17l39 -193h288z"/>
    <glyph glyph-name="glyph35" unicode="&#57379;" d="M320 160c0 -18 -14 -32 -32 -32s-32 14 -32 32s14 32 32 32s32 -14 32 -32zM240 160c0 -18 -14 -32 -32 -32s-32 14 -32 32s14 32 32 32s32 -14 32 -32zM320 240c0 -18 -14 -32 -32 -32s-32 14 -32 32s14 32 32 32s32 -14 32 -32zM240 240c0 -18 -14 -32 -32 -32 s-32 14 -32 32s14 32 32 32s32 -14 32 -32zM442 321l6 31h48l-64 -288h-352l-64 288h48l6 -31c9 2 14 7 20 13c8 8 19 18 38 18s30 -10 38 -18s13 -14 26 -14s18 6 26 14s19 18 38 18s30 -10 38 -18s13 -14 26 -14s18 6 26 14s19 18 38 18s30 -10 38 -18c6 -6 11 -11 20 -13 zM400 112l39 193c-13 3 -22 10 -29 17c-8 8 -13 14 -26 14s-18 -6 -26 -14s-19 -18 -38 -18s-30 10 -38 18s-13 14 -26 14s-18 -6 -26 -14s-19 -18 -38 -18s-30 10 -38 18s-13 14 -26 14s-18 -6 -26 -14c-7 -7 -16 -14 -29 -17l39 -193h288z"/>
    <glyph glyph-name="glyph36" unicode="&#57380;" d="M496 331l-48 -26v-165l48 -27l-16 -33l-32 17v-65h-384v65l-32 -17l-16 33l48 27v165l-48 26l16 37l32 -18v66h384v-66l32 18zM112 368v-44l28 -15c26 36 68 59 116 59s90 -23 116 -59l28 15v44h-288zM384 224c0 15 -2 29 -7 42l-81 -43l80 -44c5 14 8 29 8 45zM128 224 c0 -16 3 -31 8 -45l80 44l-81 43c-5 -13 -7 -27 -7 -42zM256 201l-101 -55c23 -30 60 -50 101 -50s78 20 101 50zM256 245l102 56c-23 31 -60 51 -102 51s-79 -20 -102 -51zM112 279v-113l10 6c-6 16 -10 33 -10 52c0 18 3 34 9 50zM400 80v43l-28 16 c-26 -35 -69 -59 -116 -59s-90 24 -116 59l-28 -16v-43h288zM400 166v113l-9 -5c6 -16 9 -32 9 -50c0 -19 -4 -36 -10 -52z"/>
    <glyph glyph-name="glyph37" unicode="&#57381;" d="M176 48h160v-32h-160v32zM288 208c0 -18 -14 -32 -32 -32s-32 14 -32 32s14 32 32 32s32 -14 32 -32zM442 321l6 31h48l-64 -288h-352l-64 288h48l6 -31c9 2 14 7 20 13c8 8 19 18 38 18s30 -10 38 -18s13 -14 26 -14s18 6 26 14s19 18 38 18s30 -10 38 -18 s13 -14 26 -14s18 6 26 14s19 18 38 18s30 -10 38 -18c6 -6 11 -11 20 -13zM400 112l39 193c-13 3 -22 10 -29 17c-8 8 -13 14 -26 14s-18 -6 -26 -14s-19 -18 -38 -18s-30 10 -38 18s-13 14 -26 14s-18 -6 -26 -14s-19 -18 -38 -18s-30 10 -38 18s-13 14 -26 14 s-18 -6 -26 -14c-7 -7 -16 -14 -29 -17l39 -193h288z"/>
    <glyph glyph-name="glyph38" unicode="&#57382;" d="M133 196c0 38 17 71 53 71c9 0 16 -2 21 -4v-17c-6 3 -12 5 -19 5c-23 0 -35 -22 -35 -47v0c6 10 15 16 28 16c22 0 34 -17 34 -39c0 -24 -16 -41 -40 -41c-29 0 -42 25 -42 56zM175 155c13 0 20 12 20 25c0 14 -6 24 -20 24c-12 0 -21 -10 -21 -22c0 -14 8 -27 21 -27z M230 201c0 37 10 66 43 66c27 0 41 -21 41 -63c0 -35 -12 -64 -44 -64c-30 0 -40 28 -40 61zM272 155c14 0 22 16 22 47c0 32 -8 49 -22 49c-15 0 -22 -16 -22 -49c0 -31 7 -47 22 -47zM331 243c0 13 11 24 24 24s24 -11 24 -24s-11 -24 -24 -24s-24 11 -24 24zM355 230 c7 0 13 6 13 13s-6 12 -13 12s-12 -5 -12 -12s5 -13 12 -13zM176 46h160v-32h-160v32zM442 321l6 31h48l-64 -288h-352l-64 288h48l6 -31c9 2 14 7 20 13c8 8 19 18 38 18s30 -10 38 -18s13 -14 26 -14s18 6 26 14s19 18 38 18s30 -10 38 -18s13 -14 26 -14s18 6 26 14 s19 18 38 18s30 -10 38 -18c6 -6 11 -11 20 -13zM400 112l39 193c-13 3 -22 10 -29 17c-8 8 -13 14 -26 14s-18 -6 -26 -14s-19 -18 -38 -18s-30 10 -38 18s-13 14 -26 14s-18 -6 -26 -14s-19 -18 -38 -18s-30 10 -38 18s-13 14 -26 14s-18 -6 -26 -14 c-7 -7 -16 -14 -29 -17l39 -193h288z"/>
    <glyph glyph-name="glyph39" unicode="&#57383;" d="M48 64c0 0 16 160 144 160h181l-5 32s0 32 -32 32s-224 16 -224 16l-16 32h256c48 0 48 -32 48 -32l64 -240h-416zM379 192h-187c-65 0 -94 -57 -105 -96h308z"/>
    <glyph glyph-name="glyph40" unicode="&#57384;" d="M201 267v-78h15v-15h-15v-30h-19v30h-56v13l53 80h22zM182 236v12v0c-1 -2 -2 -5 -4 -9l-34 -50h38v47zM230 203c0 37 11 66 44 66c27 0 40 -21 40 -63c0 -35 -11 -64 -43 -64c-30 0 -41 28 -41 61zM272 158c14 0 22 16 22 47c0 32 -7 48 -21 48c-15 0 -23 -16 -23 -49 c0 -31 7 -46 22 -46zM331 245c0 13 11 24 24 24s24 -11 24 -24s-11 -24 -24 -24s-24 11 -24 24zM355 232c7 0 13 6 13 13s-6 13 -13 13s-12 -6 -12 -13s5 -13 12 -13zM442 321l6 31h48l-64 -288h-352l-64 288h48l6 -31c9 2 14 7 20 13c8 8 19 18 38 18s30 -10 38 -18 s13 -14 26 -14s18 6 26 14s19 18 38 18s30 -10 38 -18s13 -14 26 -14s18 6 26 14s19 18 38 18s30 -10 38 -18c6 -6 11 -11 20 -13zM400 112l39 193c-13 3 -22 10 -29 17c-8 8 -13 14 -26 14s-18 -6 -26 -14s-19 -18 -38 -18s-30 10 -38 18s-13 14 -26 14s-18 -6 -26 -14 s-19 -18 -38 -18s-30 10 -38 18s-13 14 -26 14s-18 -6 -26 -14c-7 -7 -16 -14 -29 -17l39 -193h288z"/>
    <glyph glyph-name="glyph41" unicode="&#57385;" d="M176 46h160v-32h-160v32zM320 160c0 -18 -14 -32 -32 -32s-32 14 -32 32s14 32 32 32s32 -14 32 -32zM240 160c0 -18 -14 -32 -32 -32s-32 14 -32 32s14 32 32 32s32 -14 32 -32zM320 240c0 -18 -14 -32 -32 -32s-32 14 -32 32s14 32 32 32s32 -14 32 -32zM240 240 c0 -18 -14 -32 -32 -32s-32 14 -32 32s14 32 32 32s32 -14 32 -32zM442 321l6 31h48l-64 -288h-352l-64 288h48l6 -31c9 2 14 7 20 13c8 8 19 18 38 18s30 -10 38 -18s13 -14 26 -14s18 6 26 14s19 18 38 18s30 -10 38 -18s13 -14 26 -14s18 6 26 14s19 18 38 18 s30 -10 38 -18c6 -6 11 -11 20 -13zM400 112l39 193c-13 3 -22 10 -29 17c-8 8 -13 14 -26 14s-18 -6 -26 -14s-19 -18 -38 -18s-30 10 -38 18s-13 14 -26 14s-18 -6 -26 -14s-19 -18 -38 -18s-30 10 -38 18s-13 14 -26 14s-18 -6 -26 -14c-7 -7 -16 -14 -29 -17l39 -193 h288z"/>
    <glyph glyph-name="glyph42" unicode="&#57386;" d="M464 64h-416s16 160 144 160h181l-5 32s0 32 -32 32s-224 16 -224 16l-16 32h256c48 0 48 -32 48 -32zM87 96h308l-16 96h-187c-65 0 -94 -57 -105 -96zM368 144c0 -18 -14 -32 -32 -32s-32 14 -32 32s14 32 32 32s32 -14 32 -32zM288 144c0 -18 -14 -32 -32 -32 s-32 14 -32 32s14 32 32 32s32 -14 32 -32zM208 144c0 -18 -14 -32 -32 -32s-32 14 -32 32s14 32 32 32s32 -14 32 -32z"/>
    <glyph glyph-name="glyph43" unicode="&#57387;" d="M320 208c0 -18 -14 -32 -32 -32s-32 14 -32 32s14 32 32 32s32 -14 32 -32zM240 208c0 -18 -14 -32 -32 -32s-32 14 -32 32s14 32 32 32s32 -14 32 -32zM442 321l6 31h48l-64 -288h-352l-64 288h48l6 -31c9 2 14 7 20 13c8 8 19 18 38 18s30 -10 38 -18s13 -14 26 -14 s18 6 26 14s19 18 38 18s30 -10 38 -18s13 -14 26 -14s18 6 26 14s19 18 38 18s30 -10 38 -18c6 -6 11 -11 20 -13zM400 112l39 193c-13 3 -22 10 -29 17c-8 8 -13 14 -26 14s-18 -6 -26 -14s-19 -18 -38 -18s-30 10 -38 18s-13 14 -26 14s-18 -6 -26 -14s-19 -18 -38 -18 s-30 10 -38 18s-13 14 -26 14s-18 -6 -26 -14c-7 -7 -16 -14 -29 -17l39 -193h288z"/>
    <glyph glyph-name="glyph44" unicode="&#57388;" d="M135 250v17h82v-8l-46 -115h-21l45 106h-60zM227 203c0 37 10 66 43 66c27 0 41 -21 41 -63c0 -35 -12 -64 -44 -64c-30 0 -40 28 -40 61zM269 158c14 0 22 16 22 47c0 32 -8 48 -22 48c-15 0 -22 -16 -22 -49c0 -31 7 -46 22 -46zM328 245c0 13 11 24 24 24 s24 -11 24 -24s-11 -24 -24 -24s-24 11 -24 24zM352 232c7 0 13 6 13 13s-6 13 -13 13s-12 -6 -12 -13s5 -13 12 -13zM442 321l6 31h48l-64 -288h-352l-64 288h48l6 -31c9 2 14 7 20 13c8 8 19 18 38 18s30 -10 38 -18s13 -14 26 -14s18 6 26 14s19 18 38 18s30 -10 38 -18 s13 -14 26 -14s18 6 26 14s19 18 38 18s30 -10 38 -18c6 -6 11 -11 20 -13zM400 112l39 193c-13 3 -22 10 -29 17c-8 8 -13 14 -26 14s-18 -6 -26 -14s-19 -18 -38 -18s-30 10 -38 18s-13 14 -26 14s-18 -6 -26 -14s-19 -18 -38 -18s-30 10 -38 18s-13 14 -26 14 s-18 -6 -26 -14c-7 -7 -16 -14 -29 -17l39 -193h288z"/>
    <glyph glyph-name="glyph45" unicode="&#57389;" d="M464 64h-416s16 160 144 160h181l-5 32s0 32 -32 32s-224 16 -224 16l-16 32h256c48 0 48 -32 48 -32zM87 96h308l-16 96h-187c-65 0 -94 -57 -105 -96zM288 144c0 -18 -14 -32 -32 -32s-32 14 -32 32s14 32 32 32s32 -14 32 -32z"/>
    <glyph glyph-name="glyph46" unicode="&#57390;" d="M176 48h160v-32h-160v32zM176 0h160v-32h-160v32zM201 267v-78h15v-15h-15v-30h-19v30h-56v13l53 80h22zM182 236v12v0c-1 -2 -2 -5 -4 -9l-34 -50h38v47zM230 203c0 37 11 66 44 66c27 0 40 -21 40 -63c0 -35 -11 -64 -43 -64c-30 0 -41 28 -41 61zM272 158 c14 0 22 16 22 47c0 32 -7 48 -21 48c-15 0 -23 -16 -23 -49c0 -31 7 -46 22 -46zM331 245c0 13 11 24 24 24s24 -11 24 -24s-11 -24 -24 -24s-24 11 -24 24zM355 232c7 0 13 6 13 13s-6 13 -13 13s-12 -6 -12 -13s5 -13 12 -13zM442 321l6 31h48l-64 -288h-352l-64 288h48 l6 -31c9 2 14 7 20 13c8 8 19 18 38 18s30 -10 38 -18s13 -14 26 -14s18 6 26 14s19 18 38 18s30 -10 38 -18s13 -14 26 -14s18 6 26 14s19 18 38 18s30 -10 38 -18c6 -6 11 -11 20 -13zM400 112l39 193c-13 3 -22 10 -29 17c-8 8 -13 14 -26 14s-18 -6 -26 -14 s-19 -18 -38 -18s-30 10 -38 18s-13 14 -26 14s-18 -6 -26 -14s-19 -18 -38 -18s-30 10 -38 18s-13 14 -26 14s-18 -6 -26 -14c-7 -7 -16 -14 -29 -17l39 -193h288z"/>
    <glyph glyph-name="glyph47" unicode="&#57391;" d="M320 160c0 -18 -14 -32 -32 -32s-32 14 -32 32s14 32 32 32s32 -14 32 -32zM240 160c0 -18 -14 -32 -32 -32s-32 14 -32 32s14 32 32 32s32 -14 32 -32zM368 240c0 -18 -14 -32 -32 -32s-32 14 -32 32s14 32 32 32s32 -14 32 -32zM288 240c0 -18 -14 -32 -32 -32 s-32 14 -32 32s14 32 32 32s32 -14 32 -32zM208 240c0 -18 -14 -32 -32 -32s-32 14 -32 32s14 32 32 32s32 -14 32 -32zM442 321l6 31h48l-64 -288h-352l-64 288h48l6 -31c9 2 14 7 20 13c8 8 19 18 38 18s30 -10 38 -18s13 -14 26 -14s18 6 26 14s19 18 38 18 s30 -10 38 -18s13 -14 26 -14s18 6 26 14s19 18 38 18s30 -10 38 -18c6 -6 11 -11 20 -13zM400 112l39 193c-13 3 -22 10 -29 17c-8 8 -13 14 -26 14s-18 -6 -26 -14s-19 -18 -38 -18s-30 10 -38 18s-13 14 -26 14s-18 -6 -26 -14s-19 -18 -38 -18s-30 10 -38 18 s-13 14 -26 14s-18 -6 -26 -14c-7 -7 -16 -14 -29 -17l39 -193h288z"/>
    <glyph glyph-name="glyph48" unicode="&#57392;" d="M464 64h-416s16 160 144 160h181l-5 32s0 32 -32 32s-224 16 -224 16l-16 32h256c48 0 48 -32 48 -32zM87 96h308l-16 96h-187c-65 0 -94 -57 -105 -96zM336 144c0 -18 -14 -32 -32 -32s-32 14 -32 32s14 32 32 32s32 -14 32 -32zM256 144c0 -18 -14 -32 -32 -32 s-32 14 -32 32s14 32 32 32s32 -14 32 -32z"/>
    <glyph glyph-name="glyph49" unicode="&#57393;" d="M176 48h160v-32h-160v32zM176 0h160v-32h-160v32zM320 208c0 -18 -14 -32 -32 -32s-32 14 -32 32s14 32 32 32s32 -14 32 -32zM240 208c0 -18 -14 -32 -32 -32s-32 14 -32 32s14 32 32 32s32 -14 32 -32zM442 321l6 31h48l-64 -288h-352l-64 288h48l6 -31c9 2 14 7 20 13 c8 8 19 18 38 18s30 -10 38 -18s13 -14 26 -14s18 6 26 14s19 18 38 18s30 -10 38 -18s13 -14 26 -14s18 6 26 14s19 18 38 18s30 -10 38 -18c6 -6 11 -11 20 -13zM400 112l39 193c-13 3 -22 10 -29 17c-8 8 -13 14 -26 14s-18 -6 -26 -14s-19 -18 -38 -18s-30 10 -38 18 s-13 14 -26 14s-18 -6 -26 -14s-19 -18 -38 -18s-30 10 -38 18s-13 14 -26 14s-18 -6 -26 -14c-7 -7 -16 -14 -29 -17l39 -193h288z"/>
    <glyph glyph-name="glyph50" unicode="&#57394;" d="M136 228c0 24 18 41 42 41c29 0 40 -24 40 -56c0 -40 -15 -71 -52 -71c-9 0 -17 1 -23 4v18c7 -4 14 -6 21 -6c24 0 34 19 34 45v0c-5 -10 -14 -14 -27 -14c-21 0 -35 17 -35 39zM177 205c11 0 20 9 20 20c0 15 -7 28 -21 28c-12 0 -20 -11 -20 -24c0 -14 7 -24 21 -24z M290 181c0 16 -13 22 -30 22c-3 0 -9 0 -18 -1v65h63v-17h-46v-31c4 0 8 1 11 1c25 0 41 -14 41 -38c0 -26 -19 -40 -46 -40c-12 0 -21 2 -27 5v19c8 -5 16 -8 24 -8c16 0 28 8 28 23zM326 245c0 13 11 24 24 24s24 -11 24 -24s-11 -24 -24 -24s-24 11 -24 24zM350 232 c7 0 13 6 13 13s-6 13 -13 13s-12 -6 -12 -13s5 -13 12 -13zM442 321l6 31h48l-64 -288h-352l-64 288h48l6 -31c9 2 14 7 20 13c8 8 19 18 38 18s30 -10 38 -18s13 -14 26 -14s18 6 26 14s19 18 38 18s30 -10 38 -18s13 -14 26 -14s18 6 26 14s19 18 38 18s30 -10 38 -18 c6 -6 11 -11 20 -13zM400 112l39 193c-13 3 -22 10 -29 17c-8 8 -13 14 -26 14s-18 -6 -26 -14s-19 -18 -38 -18s-30 10 -38 18s-13 14 -26 14s-18 -6 -26 -14s-19 -18 -38 -18s-30 10 -38 18s-13 14 -26 14s-18 -6 -26 -14c-7 -7 -16 -14 -29 -17l39 -193h288z"/>
    <glyph glyph-name="glyph51" unicode="&#57395;" d="M496 240l-70 -34l38 -141l32 -16l-16 -33l-99 48h-250l-99 -48l-16 33l32 16c1 10 12 87 62 130l-94 45l16 37l120 -59c12 4 25 6 40 6h179l2 1l-5 31s0 32 -32 32s-224 16 -224 16l-16 32h256c48 0 48 -32 48 -32l16 -58l64 31zM306 192h-100l50 -25zM87 96h24l101 50 l-69 33c-32 -19 -48 -56 -56 -83zM198 96h116l-58 28zM394 99l-14 85l-80 -38z"/>
    <glyph glyph-name="glyph52" unicode="&#57396;" d="M176 48h160v-32h-160v32zM201 267v-78h15v-15h-15v-30h-19v30h-56v13l53 80h22zM182 236v12v0c-1 -2 -2 -5 -4 -9l-34 -50h38v47zM230 203c0 37 11 66 44 66c27 0 40 -21 40 -63c0 -35 -11 -64 -43 -64c-30 0 -41 28 -41 61zM272 158c14 0 22 16 22 47c0 32 -7 48 -21 48 c-15 0 -23 -16 -23 -49c0 -31 7 -46 22 -46zM331 245c0 13 11 24 24 24s24 -11 24 -24s-11 -24 -24 -24s-24 11 -24 24zM355 232c7 0 13 6 13 13s-6 13 -13 13s-12 -6 -12 -13s5 -13 12 -13zM442 321l6 31h48l-64 -288h-352l-64 288h48l6 -31c9 2 14 7 20 13 c8 8 19 18 38 18s30 -10 38 -18s13 -14 26 -14s18 6 26 14s19 18 38 18s30 -10 38 -18s13 -14 26 -14s18 6 26 14s19 18 38 18s30 -10 38 -18c6 -6 11 -11 20 -13zM400 112l39 193c-13 3 -22 10 -29 17c-8 8 -13 14 -26 14s-18 -6 -26 -14s-19 -18 -38 -18s-30 10 -38 18 s-13 14 -26 14s-18 -6 -26 -14s-19 -18 -38 -18s-30 10 -38 18s-13 14 -26 14s-18 -6 -26 -14c-7 -7 -16 -14 -29 -17l39 -193h288z"/>
    <glyph glyph-name="glyph53" unicode="&#57397;" d="M368 160c0 -18 -14 -32 -32 -32s-32 14 -32 32s14 32 32 32s32 -14 32 -32zM288 160c0 -18 -14 -32 -32 -32s-32 14 -32 32s14 32 32 32s32 -14 32 -32zM208 160c0 -18 -14 -32 -32 -32s-32 14 -32 32s14 32 32 32s32 -14 32 -32zM368 240c0 -18 -14 -32 -32 -32 s-32 14 -32 32s14 32 32 32s32 -14 32 -32zM288 240c0 -18 -14 -32 -32 -32s-32 14 -32 32s14 32 32 32s32 -14 32 -32zM208 240c0 -18 -14 -32 -32 -32s-32 14 -32 32s14 32 32 32s32 -14 32 -32zM442 321l6 31h48l-64 -288h-352l-64 288h48l6 -31c9 2 14 7 20 13 c8 8 19 18 38 18s30 -10 38 -18s13 -14 26 -14s18 6 26 14s19 18 38 18s30 -10 38 -18s13 -14 26 -14s18 6 26 14s19 18 38 18s30 -10 38 -18c6 -6 11 -11 20 -13zM400 112l39 193c-13 3 -22 10 -29 17c-8 8 -13 14 -26 14s-18 -6 -26 -14s-19 -18 -38 -18s-30 10 -38 18 s-13 14 -26 14s-18 -6 -26 -14s-19 -18 -38 -18s-30 10 -38 18s-13 14 -26 14s-18 -6 -26 -14c-7 -7 -16 -14 -29 -17l39 -193h288z"/>
    <glyph glyph-name="glyph54" unicode="&#57398;" d="M480 197l16 -37l-52 -20l20 -76h-88l120 -47l-16 -33l-156 59l12 -59h-32l-14 72l-21 8h-26l-21 -8l-14 -72h-32l12 59l-156 -59l-16 33l120 47h-88s4 38 22 76l-54 20l16 37l59 -23c22 28 54 50 101 50h181l-5 32s0 32 -32 32s-224 16 -224 16l-16 32h256 c48 0 48 -32 48 -32l33 -125zM192 192c-31 0 -53 -13 -69 -30l133 -52l128 50l-5 32h-187zM100 128c-5 -11 -10 -22 -13 -32h98zM395 96l-4 24l-64 -24h68z"/>
    <glyph glyph-name="glyph55" unicode="&#57399;" d="M176 48h160v-32h-160v32zM320 208c0 -18 -14 -32 -32 -32s-32 14 -32 32s14 32 32 32s32 -14 32 -32zM240 208c0 -18 -14 -32 -32 -32s-32 14 -32 32s14 32 32 32s32 -14 32 -32zM442 321l6 31h48l-64 -288h-352l-64 288h48l6 -31c9 2 14 7 20 13c8 8 19 18 38 18 s30 -10 38 -18s13 -14 26 -14s18 6 26 14s19 18 38 18s30 -10 38 -18s13 -14 26 -14s18 6 26 14s19 18 38 18s30 -10 38 -18c6 -6 11 -11 20 -13zM400 112l39 193c-13 3 -22 10 -29 17c-8 8 -13 14 -26 14s-18 -6 -26 -14s-19 -18 -38 -18s-30 10 -38 18s-13 14 -26 14 s-18 -6 -26 -14s-19 -18 -38 -18s-30 10 -38 18s-13 14 -26 14s-18 -6 -26 -14c-7 -7 -16 -14 -29 -17l39 -193h288z"/>
    <glyph glyph-name="glyph56" unicode="&#57400;" d="M136 228c0 24 18 41 42 41c29 0 40 -24 40 -56c0 -40 -15 -71 -52 -71c-9 0 -17 1 -23 4v18c7 -4 14 -6 21 -6c24 0 34 19 34 45v0c-5 -10 -14 -14 -27 -14c-21 0 -35 17 -35 39zM177 205c11 0 20 9 20 20c0 15 -7 28 -21 28c-12 0 -20 -11 -20 -24c0 -14 7 -24 21 -24z M290 181c0 16 -13 22 -30 22c-3 0 -9 0 -18 -1v65h63v-17h-46v-31c4 0 8 1 11 1c25 0 41 -14 41 -38c0 -26 -19 -40 -46 -40c-12 0 -21 2 -27 5v19c8 -5 16 -8 24 -8c16 0 28 8 28 23zM326 245c0 13 11 24 24 24s24 -11 24 -24s-11 -24 -24 -24s-24 11 -24 24zM350 232 c7 0 13 6 13 13s-6 13 -13 13s-12 -6 -12 -13s5 -13 12 -13zM176 48h160v-32h-160v32zM442 321l6 31h48l-64 -288h-352l-64 288h48l6 -31c9 2 14 7 20 13c8 8 19 18 38 18s30 -10 38 -18s13 -14 26 -14s18 6 26 14s19 18 38 18s30 -10 38 -18s13 -14 26 -14s18 6 26 14 s19 18 38 18s30 -10 38 -18c6 -6 11 -11 20 -13zM400 112l39 193c-13 3 -22 10 -29 17c-8 8 -13 14 -26 14s-18 -6 -26 -14s-19 -18 -38 -18s-30 10 -38 18s-13 14 -26 14s-18 -6 -26 -14s-19 -18 -38 -18s-30 10 -38 18s-13 14 -26 14s-18 -6 -26 -14 c-7 -7 -16 -14 -29 -17l39 -193h288z"/>
    <glyph glyph-name="glyph57" unicode="&#57401;" d="M448 416v-384h-384v384h384zM400 80v288h-288v-288h288zM256 368c80 0 144 -64 144 -144s-64 -144 -144 -144s-144 64 -144 144s64 144 144 144zM256 96c71 0 128 57 128 128s-57 128 -128 128s-128 -57 -128 -128s57 -128 128 -128zM208 224c0 -18 -14 -32 -32 -32 s-32 14 -32 32s14 32 32 32s32 -14 32 -32zM288 224c0 -18 -14 -32 -32 -32s-32 14 -32 32s14 32 32 32s32 -14 32 -32zM368 224c0 -18 -14 -32 -32 -32s-32 14 -32 32s14 32 32 32s32 -14 32 -32z"/>
    <glyph glyph-name="glyph58" unicode="&#57402;" d="M448 416v-384h-384v384h384zM400 80v288h-288v-288h288zM256 368c80 0 144 -64 144 -144s-64 -144 -144 -144s-144 64 -144 144s64 144 144 144zM256 96c71 0 128 57 128 128s-57 128 -128 128s-128 -57 -128 -128s57 -128 128 -128z"/>
    <glyph glyph-name="glyph59" unicode="&#57403;" d="M64 32v384h384v-384h-384zM272 368l-31 -31c5 0 10 -1 15 -1c39 0 76 12 106 32h-90zM208 368l-20 -20c8 -3 17 -5 25 -7l27 27h-32zM176 368h-26c5 -4 10 -7 16 -10zM112 357v-53l31 31c-11 6 -21 14 -31 22zM112 272v-32l75 75c-8 3 -16 6 -23 9zM112 208v-128h288v277 c-39 -33 -89 -53 -144 -53c-15 0 -30 1 -44 4z"/>
    <glyph glyph-name="glyph60" unicode="&#57404;" d="M64 32v384h384v-384h-384zM362 368h-212c30 -20 67 -32 106 -32s76 12 106 32zM112 357v-277h288v277c-39 -33 -89 -53 -144 -53s-105 20 -144 53z"/>
    <glyph glyph-name="glyph61" unicode="&#57405;" d="M64 32v384h384v-384h-384zM112 368v-64l64 64h-64zM112 272v-32l128 128h-32zM112 208v-128h288v288h-128zM160 240h192v-32h-192v32z"/>
    <glyph glyph-name="glyph62" unicode="&#57406;" d="M64 32v384h384v-384h-384zM112 368v-288h288v288h-288zM160 240h192v-32h-192v32z"/>
    <glyph glyph-name="glyph63" unicode="&#57407;" d="M64 32v384h384v-384h-384zM112 368v-64l64 64h-64zM112 272v-32l128 128h-32zM112 208v-128h288v288h-127z"/>
    <glyph glyph-name="glyph64" unicode="&#57408;" d="M64 32v384h384v-384h-384zM112 368v-64l64 64h-64zM112 272v-32l48 48v32h32l48 48h-32zM112 208v-128h288v288h-128l-80 -80v-160h-32v128zM240 320h32v-192h-32v192zM320 320h32v-192h-32v192z"/>
    <glyph glyph-name="glyph65" unicode="&#57409;" d="M144 144c0 35 64 160 64 160s64 -125 64 -160s-29 -64 -64 -64s-64 29 -64 64zM249 246c18 50 55 122 55 122s64 -125 64 -160s-29 -64 -64 -64c-6 0 -11 1 -16 2c-1 22 -20 63 -39 100z"/>
    <glyph glyph-name="glyph66" unicode="&#57410;" d="M457 161l23 -23l-113 -113l-23 23zM256 64c-97 0 -176 79 -176 176s79 176 176 176s176 -79 176 -176s-79 -176 -176 -176zM256 384c-80 0 -144 -64 -144 -144s64 -144 144 -144s144 64 144 144s-64 144 -144 144z"/>
    <glyph glyph-name="glyph67" unicode="&#57411;" d="M416 320v-288h-320v288h320zM368 80v192h-224v-192h224zM352 256v-160h-192v160h192zM192 144v64h-16v-64h16zM416 416v-80h-320v80h320zM128 360v32c0 4 -4 8 -8 8s-8 -4 -8 -8v-32c0 -4 4 -8 8 -8s8 4 8 8zM312 352c13 0 24 11 24 24s-11 24 -24 24s-24 -11 -24 -24 s11 -24 24 -24zM376 352c13 0 24 11 24 24s-11 24 -24 24s-24 -11 -24 -24s11 -24 24 -24z"/>
    <glyph glyph-name="glyph68" unicode="&#57412;" d="M457 319l-113 113l23 23l113 -113zM256 416c97 0 176 -79 176 -176s-79 -176 -176 -176s-176 79 -176 176s79 176 176 176zM256 96c80 0 144 64 144 144s-64 144 -144 144s-144 -64 -144 -144s64 -144 144 -144z"/>
    <glyph glyph-name="glyph69" unicode="&#57413;" d="M416 288v-112c32 -64 32 -96 32 -96v-16h-384v16s32 112 128 112h16v16h64v-16h80l16 32s0 32 -32 32s-112 -16 -160 -16s-48 48 -48 48h288zM312 160c4 0 8 4 8 8s-4 8 -8 8h-16c-4 0 -8 -4 -8 -8s4 -8 8 -8h16zM360 160c4 0 8 4 8 8s-4 8 -8 8h-16c-4 0 -8 -4 -8 -8 s4 -8 8 -8h16z"/>
    <glyph glyph-name="glyph70" unicode="&#57414;" d="M64 80l-16 37l54 38c-14 25 -22 54 -22 85s8 60 22 85l-54 38l16 37l60 -43c32 36 80 59 132 59s99 -23 131 -59l61 43l16 -33l-55 -40c15 -26 23 -55 23 -87s-8 -61 -23 -87l55 -40l-16 -33l-61 43c-32 -36 -79 -59 -131 -59s-100 23 -132 59zM256 96c41 0 79 18 105 46 l-106 75l-104 -75c26 -28 63 -46 105 -46zM400 240c0 25 -6 48 -17 68l-96 -68l96 -68c11 20 17 43 17 68zM256 384c-42 0 -79 -18 -105 -46l104 -75l106 75c-26 28 -64 46 -105 46zM112 240c0 -24 6 -46 16 -66l94 66l-94 66c-10 -20 -16 -42 -16 -66z"/>
    <glyph glyph-name="glyph71" unicode="&#57415;" d="M32 256h448v-48h-16l-32 -128c0 -9 -7 -16 -16 -16h-320c-9 0 -16 7 -16 16l-32 128h-16v48zM152 96c4 0 8 4 8 8s-4 8 -8 8h-32c-4 0 -8 -4 -8 -8s4 -8 8 -8h32zM152 128c4 0 8 4 8 8s-4 8 -8 8h-32c-4 0 -8 -4 -8 -8s4 -8 8 -8h32zM152 160c4 0 8 4 8 8s-4 8 -8 8h-32 c-4 0 -8 -4 -8 -8s4 -8 8 -8h32zM152 192c4 0 8 4 8 8s-4 8 -8 8h-32c-4 0 -8 -4 -8 -8s4 -8 8 -8h32zM232 96c4 0 8 4 8 8s-4 8 -8 8h-32c-4 0 -8 -4 -8 -8s4 -8 8 -8h32zM232 128c4 0 8 4 8 8s-4 8 -8 8h-32c-4 0 -8 -4 -8 -8s4 -8 8 -8h32zM232 160c4 0 8 4 8 8 s-4 8 -8 8h-32c-4 0 -8 -4 -8 -8s4 -8 8 -8h32zM232 192c4 0 8 4 8 8s-4 8 -8 8h-32c-4 0 -8 -4 -8 -8s4 -8 8 -8h32zM312 96c4 0 8 4 8 8s-4 8 -8 8h-32c-4 0 -8 -4 -8 -8s4 -8 8 -8h32zM312 128c4 0 8 4 8 8s-4 8 -8 8h-32c-4 0 -8 -4 -8 -8s4 -8 8 -8h32zM312 160 c4 0 8 4 8 8s-4 8 -8 8h-32c-4 0 -8 -4 -8 -8s4 -8 8 -8h32zM312 192c4 0 8 4 8 8s-4 8 -8 8h-32c-4 0 -8 -4 -8 -8s4 -8 8 -8h32zM392 96c4 0 8 4 8 8s-4 8 -8 8h-32c-4 0 -8 -4 -8 -8s4 -8 8 -8h32zM392 128c4 0 8 4 8 8s-4 8 -8 8h-32c-4 0 -8 -4 -8 -8s4 -8 8 -8h32z M392 160c4 0 8 4 8 8s-4 8 -8 8h-32c-4 0 -8 -4 -8 -8s4 -8 8 -8h32zM392 192c4 0 8 4 8 8s-4 8 -8 8h-32c-4 0 -8 -4 -8 -8s4 -8 8 -8h32z"/>
    <glyph glyph-name="glyph72" unicode="&#57416;" d="M256 64c-97 0 -176 79 -176 176s79 176 176 176s176 -79 176 -176s-79 -176 -176 -176zM256 384c-80 0 -144 -64 -144 -144s64 -144 144 -144s144 64 144 144s-64 144 -144 144zM323 272c0 -37 -28 -60 -66 -60h-24v-65h-30v180h55c38 0 65 -18 65 -55zM252 237 c24 0 39 10 39 33c0 21 -12 32 -36 32h-22v-65h19z"/>
    <glyph glyph-name="glyph73" unicode="&#57417;" d="M32 208v48h448v-48h-16l-32 -128c0 -9 -7 -16 -16 -16h-320c-9 0 -16 7 -16 16l-32 128h-16zM360 208c-4 0 -8 -4 -8 -8s4 -8 8 -8h32c4 0 8 4 8 8s-4 8 -8 8h-32zM360 176c-4 0 -8 -4 -8 -8s4 -8 8 -8h32c4 0 8 4 8 8s-4 8 -8 8h-32zM360 144c-4 0 -8 -4 -8 -8 s4 -8 8 -8h32c4 0 8 4 8 8s-4 8 -8 8h-32zM360 112c-4 0 -8 -4 -8 -8s4 -8 8 -8h32c4 0 8 4 8 8s-4 8 -8 8h-32zM280 208c-4 0 -8 -4 -8 -8s4 -8 8 -8h32c4 0 8 4 8 8s-4 8 -8 8h-32zM280 176c-4 0 -8 -4 -8 -8s4 -8 8 -8h32c4 0 8 4 8 8s-4 8 -8 8h-32zM280 144 c-4 0 -8 -4 -8 -8s4 -8 8 -8h32c4 0 8 4 8 8s-4 8 -8 8h-32zM280 112c-4 0 -8 -4 -8 -8s4 -8 8 -8h32c4 0 8 4 8 8s-4 8 -8 8h-32zM200 208c-4 0 -8 -4 -8 -8s4 -8 8 -8h32c4 0 8 4 8 8s-4 8 -8 8h-32zM200 176c-4 0 -8 -4 -8 -8s4 -8 8 -8h32c4 0 8 4 8 8s-4 8 -8 8h-32z M200 144c-4 0 -8 -4 -8 -8s4 -8 8 -8h32c4 0 8 4 8 8s-4 8 -8 8h-32zM200 112c-4 0 -8 -4 -8 -8s4 -8 8 -8h32c4 0 8 4 8 8s-4 8 -8 8h-32zM120 208c-4 0 -8 -4 -8 -8s4 -8 8 -8h32c4 0 8 4 8 8s-4 8 -8 8h-32zM120 176c-4 0 -8 -4 -8 -8s4 -8 8 -8h32c4 0 8 4 8 8 s-4 8 -8 8h-32zM120 144c-4 0 -8 -4 -8 -8s4 -8 8 -8h32c4 0 8 4 8 8s-4 8 -8 8h-32zM120 112c-4 0 -8 -4 -8 -8s4 -8 8 -8h32c4 0 8 4 8 8s-4 8 -8 8h-32zM88 272c-4 0 -8 4 -8 8s4 8 8 8h344c4 0 8 -4 8 -8s-4 -8 -8 -8h-344zM80 312c0 4 4 8 8 8h296c4 0 8 -4 8 -8 s-4 -8 -8 -8h-296c-4 0 -8 4 -8 8zM112 336c-4 0 -8 4 -8 8s4 8 8 8h272c4 0 8 -4 8 -8s-4 -8 -8 -8h-272zM112 368c-4 0 -8 4 -8 8s4 8 8 8h224c4 0 8 -4 8 -8s-4 -8 -8 -8h-224z"/>
    <glyph glyph-name="glyph74" unicode="&#57418;" d="M176 48h160v-32h-160v32zM256 64c-97 0 -176 79 -176 176s79 176 176 176s176 -79 176 -176s-79 -176 -176 -176zM256 384c-80 0 -144 -64 -144 -144s64 -144 144 -144s144 64 144 144s-64 144 -144 144zM323 272c0 -37 -28 -60 -66 -60h-24v-65h-30v180h55 c38 0 65 -18 65 -55zM252 237c24 0 39 10 39 33c0 21 -12 32 -36 32h-22v-65h19z"/>
    <glyph glyph-name="glyph75" unicode="&#57419;" d="M160 64v288h192v-288h-80l-16 192l-16 -192h-80zM160 384h192v-16h-192v16z"/>
    <glyph glyph-name="glyph76" unicode="&#57420;" d="M50 342l113 113l23 -23l-113 -113zM80 240c0 97 79 176 176 176s176 -79 176 -176s-79 -176 -176 -176s-176 79 -176 176zM256 384c-80 0 -144 -64 -144 -144s64 -144 144 -144s144 64 144 144s-64 144 -144 144z"/>
    <glyph glyph-name="glyph77" unicode="&#57421;" d="M304 368l96 -32l48 -80l-64 -48l-32 48v-176h-192v176l-32 -48l-64 48l48 80l96 32s0 -32 48 -32s48 32 48 32z"/>
    <glyph glyph-name="glyph78" unicode="&#57422;" d="M64 161l113 -113l-23 -23l-113 113zM256 64c-97 0 -176 79 -176 176s79 176 176 176s176 -79 176 -176s-79 -176 -176 -176zM256 384c-80 0 -144 -64 -144 -144s64 -144 144 -144s144 64 144 144s-64 144 -144 144z"/>
    <glyph glyph-name="glyph79" unicode="&#57423;" d="M496 331l-48 -26v-165l48 -27l-16 -33l-32 17v-65h-384v65l-32 -17l-16 33l48 27v165l-48 26l16 37l32 -18v66h384v-66l32 18zM112 368v-44l144 -79l144 79v44h-288zM112 279v-113l104 57zM400 80v43l-144 78l-144 -78v-43h288zM400 166v113l-104 -56z"/>
    <glyph glyph-name="glyph80" unicode="&#57424;" d="M416 320v-288h-320v288h320zM256 96c44 0 80 36 80 80s-36 80 -80 80s-80 -36 -80 -80s36 -80 80 -80zM256 112c-35 0 -64 29 -64 64h128c0 -35 -29 -64 -64 -64zM416 416v-80h-320v80h320zM128 360v32c0 4 -4 8 -8 8s-8 -4 -8 -8v-32c0 -4 4 -8 8 -8s8 4 8 8zM312 352 c13 0 24 11 24 24s-11 24 -24 24s-24 -11 -24 -24s11 -24 24 -24zM376 352c13 0 24 11 24 24s-11 24 -24 24s-24 -11 -24 -24s11 -24 24 -24z"/>
    <glyph glyph-name="glyph81" unicode="&#57425;" d="M256 416c97 0 176 -79 176 -176s-79 -176 -176 -176s-176 79 -176 176s79 176 176 176zM256 96c80 0 144 64 144 144s-64 144 -144 144s-144 -64 -144 -144s64 -144 144 -144zM335 304h27l-43 -157h-30l-29 110c-1 5 -3 9 -3 15v0c0 -5 -2 -10 -3 -15l-30 -110h-30 l-44 157h29l28 -115c1 -5 2 -10 2 -15h1c0 4 1 9 3 15l32 115h27l30 -116c1 -4 1 -9 2 -14v0c0 4 2 9 3 15z"/>
    <glyph glyph-name="glyph82" unicode="&#57426;" d="M384 336h-256v80h256v-80zM344 400c-13 0 -24 -11 -24 -24s11 -24 24 -24s24 11 24 24s-11 24 -24 24zM280 400c-13 0 -24 -11 -24 -24s11 -24 24 -24s24 11 24 24s-11 24 -24 24zM144 392v-32c0 -4 4 -8 8 -8s8 4 8 8v32c0 4 -4 8 -8 8s-8 -4 -8 -8zM172 288h168l22 -64 h-212zM288 240v16h-64v-16h64zM432 192v-160h-352v160l48 128h256zM128 208h256l-32 96h-192z"/>
    <glyph glyph-name="glyph83" unicode="&#57427;" d="M176 48h160v-32h-160v32zM256 416c97 0 176 -79 176 -176s-79 -176 -176 -176s-176 79 -176 176s79 176 176 176zM256 96c80 0 144 64 144 144s-64 144 -144 144s-144 -64 -144 -144s64 -144 144 -144zM335 304h27l-43 -157h-30l-29 110c-1 5 -3 9 -3 15v0 c0 -5 -2 -10 -3 -15l-30 -110h-30l-44 157h29l28 -115c1 -5 2 -10 2 -15h1c0 4 1 9 3 15l32 115h27l30 -116c1 -4 1 -9 2 -14v0c0 4 2 9 3 15z"/>
  </font>
</defs>
</svg>
